FS [ Hành Động]Jurassic World Dominion 2022 Extended Cut BluRay 1080p DTS-HD MA 7 -Thế giới khủng long

Thảo luận trong '3D, BluRay gốc & Remux' bắt đầu bởi xemaydinh, 3/8/22.

  1. xemaydinh Uploader

    210 lượt xem
    các phần trước có trong Folder Fshare



    Jurassic World Dominion 2022 Extended Cut BluRay 1080p DTS-HD MA 7 1 AVC REMUX-FraMeSToR

    Thế giới khủng long: Lãnh địa

    [​IMG]


    Bốn năm sau kết thúc Jurassic World: Fallen Kingdom, những con khủng long đã thoát khỏi nơi giam cầm và tiến vào thế giới loài người. Giờ đây, chúng xuất hiện ở khắp mọi nơi. Sinh vật to lớn ấy không còn chỉ ở trên đảo như trước nữa mà gần ngay trước mắt, thậm chí còn có thể chạm tới. Owen Grady may mắn gặp lại cô khủng long mà anh và khán giả vô cùng yêu mến - Blue. Tuy nhiên, Blue không đi một mình mà còn đem theo một chú khủng long con khác. Điều này khiến Owen càng quyết tâm bảo vệ mẹ con cô được sinh sống an toàn. Thế nhưng, hai giống loài quá khác biệt. Liệu có thể tồn tại một kỷ nguyên mà khủng long và con người sống chung một cách hòa bình?

    General
    Unique ID : 139814281495831004093234638734729522469 (0x692F404A9E36EEB354B5DBC962EDAD25)
    Complete name : Jurassic.World.Dominion.2022.Extended.Cut.BluRay.1080p.DTS-HD.MA.7.1.AVC.REMUX-FraMeSToR.mkv
    Format : Matroska
    Format version : Version 4
    File size : 29.4 GiB
    Duration : 2 h 40 min
    Overall bit rate mode : Variable
    Overall bit rate : 26.2 Mb/s
    Movie name : Jurassic World Dominion (2022)
    Encoded date : UTC 2022-08-02 04:23:30
    Writing application : mkvmerge v53.0.0 ('Fool's Gold') 64-bit
    Writing library : libebml v1.4.1 + libmatroska v1.6.2
    IMDB : tt8041270
    TMDB : movie/507086

    Video
    ID : 1
    Format : AVC
    Format/Info : Advanced Video Codec
    Format profile : High@L4.1
    Format settings : CABAC / 2 Ref Frames
    Format settings, CABAC : Yes
    Format settings, Reference frames : 2 frames
    Format settings, GOP : M=1, N=10
    Codec ID : V_MPEG4/ISO/AVC
    Duration : 2 h 40 min
    Bit rate mode : Variable
    Bit rate : 22.8 Mb/s
    Width : 1 920 pixels
    Height : 1 080 pixels
    Display aspect ratio : 16:9
    Frame rate mode : Constant
    Frame rate : 23.976 (24000/1001) FPS
    Color space : YUV
    Chroma subsampling : 4:2:0
    Bit depth : 8 bits
    Scan type : Progressive
    Bits/(Pixel*Frame) : 0.459
    Stream size : 25.6 GiB (87%)
    Default : Yes
    Forced : No

    Audio
    ID : 2
    Format : DTS XLL X
    Format/Info : Digital Theater Systems
    Commercial name : DTS-HD Master Audio
    Codec ID : A_DTS
    Duration : 2 h 40 min
    Bit rate mode : Variable
    Bit rate : 3 301 kb/s
    Channel(s) : 8 channels
    Channel(s)_Original : Object Based
    ChannelLayout_Original : Object Based
    Sampling rate : 48.0 kHz
    Frame rate : 93.750 FPS (512 SPF)
    Bit depth : 24 bits
    Stream size : 3.70 GiB (13%)
    Title : DTS-HD MA 7.1
    Language : English
    Default : Yes
    Forced : No

    Text #1
    ID : 3
    Format : PGS
    Codec ID : S_HDMV/PGS
    Codec ID/Info : Picture based subtitle format used on BDs/HD-DVDs
    Duration : 2 h 37 min
    Bit rate : 36.8 kb/s
    Count of elements : 4074
    Stream size : 41.5 MiB (0%)
    Title : English (SDH)
    Language : English
    Default : No
    Forced : No

    Text #2
    ID : 4
    Format : PGS
    Codec ID : S_HDMV/PGS
    Codec ID/Info : Picture based subtitle format used on BDs/HD-DVDs
    Duration : 2 h 36 min
    Bit rate : 32.7 kb/s
    Count of elements : 3404
    Stream size : 36.6 MiB (0%)
    Title : French
    Language : French
    Default : No
    Forced : No

    Text #3
    ID : 5
    Format : PGS
    Codec ID : S_HDMV/PGS
    Codec ID/Info : Picture based subtitle format used on BDs/HD-DVDs
    Duration : 2 h 36 min
    Bit rate : 31.1 kb/s
    Count of elements : 3424
    Stream size : 34.9 MiB (0%)
    Title : Spanish (Latin American)
    Language : Spanish
    Default : No
    Forced : No

    Menu
    00:00:00.000 : en:Chapter 1
    00:07:57.560 : en:Chapter 2
    00:11:36.362 : en:Chapter 3
    00:25:30.070 : en:Chapter 4
    00:35:48.271 : en:Chapter 5
    00:42:56.282 : en:Chapter 6
    00:47:53.788 : en:Chapter 7
    00:54:45.407 : en:Chapter 8
    01:04:51.054 : en:Chapter 9
    01:14:49.026 : en:Chapter 10
    01:25:28.373 : en:Chapter 11
    01:30:44.355 : en:Chapter 12
    01:38:17.975 : en:Chapter 13
    01:44:28.345 : en:Chapter 14
    01:48:09.483 : en:Chapter 15
    02:04:34.425 : en:Chapter 16
    02:08:56.896 : en:Chapter 17
    02:14:12.961 : en:Chapter 18
    02:23:16.921 : en:Chapter 19
    02:29:59.032 : en:Chapter 20






    [​IMG] [​IMG]
    [​IMG] [​IMG]
    [​IMG] [​IMG]






    Fshare ~ 29.44GB

    Nội dung Ẩn:
    **Link đã được ẩn: Bạn click nút Like để lấy link download nhé.**
    Xem hướng dẫn
    4Share
    Nội dung Ẩn:
    **Link đã được ẩn: Bạn click nút Like để lấy link download nhé.**
    Xem hướng dẫn
    Sub Việt

    https://subscene.com/subtitles/jurassic-world-dominion

    Tổng hợp phim 18+

    Link topic https://hdvietnam.org/threads/mutil...ng-nhat-ban-au-my-cap-nhat-hang-ngay.1796232/

    Nội dung Ẩn:
    **Link đã được ẩn: Bạn click nút Like để lấy link download nhé.**
    Xem hướng dẫn
    Tổng hợp phim full Menu (Thuyết minh+Sub Việt) bluray (nethd.org)

    Nội dung Ẩn:
    **Link đã được ẩn: Bạn click nút Like để lấy link download nhé.**
    Xem hướng dẫn
    Tổng hợp phim bộ Lồng tiếng, thuyết minh, sub việt

    Nội dung Ẩn:
    **Link đã được ẩn: Bạn click nút Like để lấy link download nhé.**
    Xem hướng dẫn
    Tổng hợp phim hàng ngày

    Link topic https://hdvietnam.org/threads/tong-hop-phim-bluray-remux-iso-cap-nhat-hang-ngay.1796055/

    Nội dung Ẩn:
    **Link đã được ẩn: Bạn click nút Like để lấy link download nhé.**
    Xem hướng dẫn
    Tổng hợp phim bluray Remux ISO 4K






    mhd https://www.hdvietnam.xyz/threads/h...ay-dd5-1x264-xmd-the-gioi-khung-long.1807350/

    720p https://www.hdvietnam.xyz/threads/h...uray-x264-dts-mt-the-gioi-khung-long.1807349/

    1080p https://www.hdvietnam.xyz/threads/h...bluray-dts-hd-ma-the-gioi-khung-long.1806869/

    4K

    Thuyết minh

    Remux

    ISO
    Tags:

    Thấy hay chia sẻ ngay

  2. nghia_pmt

    nghia_pmt Thành viên mới

    sub ko khớp ai syn lại dùm với
  3. yếnchâu

    yếnchâu Thành viên mới

    xin sub việt bản Jurassic.World.Dominion.2022.BluRay.1080p.MTeam.
    tìm không thấy sub nào khớp hết.
  4. xemaydinh

    xemaydinh Uploader


    các bác sang dow bản này thì khớp

    https://www.taiphimhd.com/threads/143926/
  5. xemaydinh

    xemaydinh Uploader

    nghia_pmt thích bài này.
  6. nghia_pmt

    nghia_pmt Thành viên mới

    các bác có thấy bác hungdaita đâu ko nhỉ, mấy bữa nay bác ấy lặn mất tăm :hmmm: