FS [ Tâm Lý ] Lonely Wives 1972 GERMAN 1080p BluRay x264 DD2.0-PTP - Những cô vợ Cô đơn

Thảo luận trong '720p & 1080p' bắt đầu bởi xemaydinh, 6/8/22.

  1. xemaydinh Uploader

    30 lượt xem
    Lonely Wives 1972 GERMAN 1080p BluRay x264 DD2.0-PTP | 18+

    Những cô vợ Cô đơn

    [​IMG]

    cân nhắc​


    Một phóng viên bắt đầu nghiên cứu về một câu chuyện liên quan đến những phụ nữ châu Âu đã kết hôn và những tưởng tượng và ước muốn thầm kín của họ.

    General
    Unique ID : 14431636700367216840016544787589401118 (0xADB6E9FDC4082712D7D5DB7D1468A1E)
    Complete name : Lonely.Wives.1972.GERMAN.1080p.BluRay.x264.DD2.0.PTP.mkv
    Format : Matroska
    Format version : Version 4
    File size : 6.27 GiB
    Duration : 1 h 18 min
    Overall bit rate : 11.4 Mb/s
    Movie name : Lonely Wives (1972)
    Encoded date : UTC 2022-04-06 16:39:22
    Writing application : mkvmerge v66.0.0 ('Josie') 64-bit
    Writing library : libebml v1.4.2 + libmatroska v1.6.4

    Video
    ID : 1
    Format : AVC
    Format/Info : Advanced Video Codec
    Format profile : High@L4.1
    Format settings : CABAC / 4 Ref Frames
    Format settings, CABAC : Yes
    Format settings, Reference frames : 4 frames
    Codec ID : V_MPEG4/ISO/AVC
    Duration : 1 h 18 min
    Bit rate : 11.0 Mb/s
    Width : 1 800 pixels
    Height : 1 080 pixels
    Display aspect ratio : 5:3
    Frame rate mode : Constant
    Frame rate : 23.976 (24000/1001) FPS
    Color space : YUV
    Chroma subsampling : 4:2:0
    Bit depth : 8 bits
    Scan type : Progressive
    Bits/(Pixel*Frame) : 0.236
    Stream size : 6.07 GiB (97%)
    Writing library : x264 core 163 r3059 b684ebe0
    Encoding settings : cabac=1 / ref=4 / deblock=1:-3:-3 / analyse=0x3:0x133 / me=umh / subme=10 / psy=1 / psy_rd=1.00:0.00 / mixed_ref=1 / me_range=32 / chroma_me=1 / trellis=2 / 8x8dct=1 / cqm=0 / deadzone=21,11 / fast_pskip=0 / chroma_qp_offset=-2 / threads=15 / lookahead_threads=3 / sliced_threads=0 / nr=0 / decimate=0 / interlaced=0 / bluray_compat=0 / constrained_intra=0 / bframes=16 / b_pyramid=2 / b_adapt=2 / b_bias=0 / direct=3 / weightb=1 / open_gop=0 / weightp=2 / keyint=240 / keyint_min=24 / scenecut=40 / intra_refresh=0 / rc_lookahead=60 / rc=2pass / mbtree=0 / bitrate=11000 / ratetol=1.0 / qcomp=0.60 / qpmin=0 / qpmax=69 / qpstep=4 / cplxblur=20.0 / qblur=0.5 / vbv_maxrate=62500 / vbv_bufsize=78125 / nal_hrd=none / filler=0 / ip_ratio=1.40 / pb_ratio=1.30 / aq=2:1.00
    Default : Yes
    Forced : No
    Color range : Limited
    Color primaries : BT.709
    Transfer characteristics : BT.709
    Matrix coefficients : BT.709

    Audio #1
    ID : 2
    Format : AC-3
    Format/Info : Audio Coding 3
    Commercial name : Dolby Digital
    Codec ID : A_AC3
    Duration : 1 h 18 min
    Bit rate mode : Constant
    Bit rate : 224 kb/s
    Channel(s) : 2 channels
    Channel layout : L R
    Sampling rate : 48.0 kHz
    Frame rate : 31.250 FPS (1536 SPF)
    Compression mode : Lossy
    Stream size : 126 MiB (2%)
    Title : Original German Track (UFA DVD)
    Language : German
    Service kind : Complete Main
    Default : Yes
    Forced : No

    Audio #2
    ID : 3
    Format : AAC LC
    Format/Info : Advanced Audio Codec Low Complexity
    Codec ID : A_AAC-2
    Duration : 1 h 18 min
    Bit rate : 150 kb/s
    Channel(s) : 1 channel
    Channel layout : C
    Sampling rate : 48.0 kHz
    Frame rate : 46.875 FPS (1024 SPF)
    Compression mode : Lossy
    Stream size : 84.8 MiB (1%)
    Language : English
    Default : Yes
    Forced : No

    Text
    ID : 4
    Format : UTF-8
    Codec ID : S_TEXT/UTF8
    Codec ID/Info : UTF-8 Plain Text
    Duration : 1 h 14 min
    Bit rate : 59 b/s
    Count of elements : 1030
    Stream size : 32.6 KiB (0%)
    Language : English
    Default : Yes
    Forced : No

    Menu
    00:00:00.000 : :de: Ehekrach - en: Marriage Crash
    00:07:19.898 : :de: Interview mit der Nachbarin - en: Interview with the Neighbor
    00:16:07.258 : :de: Anita, Millionärsgattin - en: Anita, Millionaire's Wife
    00:24:42.815 : :de: Todlicher Sturz - en: Fatal Fall
    00:32:08.885 : :de: Akustischer Voyeurismus - en: Acoustic Voyeurism
    00:43:55.883 : :de: Schöner Nebenverdienst - en: Nice Additional Income
    00:51:42.683 : :de: Flitterwochen Zu Viert - en: Honeymoon for Four
    01:08:03.079 : :de: Sex-Schule - en: Sex School




    [​IMG] [​IMG] [​IMG] [​IMG] [​IMG] [​IMG]


    Fshare ~ 6.28GB

    Nội dung Ẩn:
    **Link đã được ẩn: Bạn click nút Like để lấy link download nhé.**
    Xem hướng dẫn
    4Share

    Nội dung Ẩn:
    **Link đã được ẩn: Bạn click nút Like để lấy link download nhé.**
    Xem hướng dẫn
    Sub

    https://subscene.com/subtitles/virgin-wives-lonely-wives-zum-zweiten-frhstck-heie-liebe

    Tổng hợp phim 18+

    Link topic https://hdvietnam.xyz/threads/mutil...ng-nhat-ban-au-my-cap-nhat-hang-ngay.1796232/

    Nội dung Ẩn:
    **Link đã được ẩn: Bạn click nút Like để lấy link download nhé.**
    Xem hướng dẫn
    Tổng hợp phim full Menu (Thuyết minh+Sub Việt) bluray (nethd.org)

    Nội dung Ẩn:
    **Link đã được ẩn: Bạn click nút Like để lấy link download nhé.**
    Xem hướng dẫn
    Tổng hợp phim bộ Lồng tiếng, thuyết minh, sub việt

    Nội dung Ẩn:
    **Link đã được ẩn: Bạn click nút Like để lấy link download nhé.**
    Xem hướng dẫn
    Tổng hợp phim hàng ngày

    Link topic https://hdvietnam.xyz/threads/tong-hop-phim-bluray-remux-iso-cap-nhat-hang-ngay.1796055/

    Nội dung Ẩn:
    **Link đã được ẩn: Bạn click nút Like để lấy link download nhé.**
    Xem hướng dẫn
    Tổng hợp phim bluray Remux ISO 4K






    mhd

    720p

    1080p

    Thuyết minh

    Remux

    ISO
    Tags:
    phuongga6789 and hoami2324 like this.

    Thấy hay chia sẻ ngay