FS [ Phiêu Lưu] Neptune Frost 2021 BluRay Remux 1080p AVC DTS-X 7.1-ZQ-Mỏ Vàng

Thảo luận trong '3D, BluRay gốc & Remux' bắt đầu bởi xemaydinh, 16/8/22.

  1. xemaydinh Uploader

    56 lượt xem
    Neptune Frost 2021 BluRay Remux 1080p AVC DTS-X 7.1-ZQ

    Mỏ Vàng

    [​IMG]


    Neptune Frost là một bộ phim khoa học viễn tưởng âm nhạc, do Saul Williams đạo diễn và Anisia Uzeyman. Phim có sự tham gia của Cheryl Isheja, Elvis Ngabo và Kaya Miễn phí. Nó kể về mối quan hệ giữa Neptune và Matalusa, thợ mỏ coltan có tình yêu dẫn đầu một nhóm hacker. Wikipedia (tiếng Anh)



    General
    Unique ID : 39302071499183314851268814015755298325 (0x1D914DBB32D158585264929EE069A615)
    Complete name : Neptune.Frost.2021.BluRay.Remux.1080p.AVC.DTS-X.7.1-ZQ.mkv
    Format : Matroska
    Format version : Version 4
    File size : 31.4 GiB
    Duration : 1 h 49 min
    Overall bit rate mode : Variable
    Overall bit rate : 40.9 Mb/s
    Movie name : Neptune Frost (2021) Kino Lorber - ZQ
    Encoded date : UTC 2022-08-08 21:38:00
    Writing application : mkvmerge v69.0.0 ('Day And Age') 64-bit
    Writing library : libebml v1.4.2 + libmatroska v1.6.4

    Video
    ID : 1
    Format : AVC
    Format/Info : Advanced Video Codec
    Format profile : High@L4.1
    Format settings : CABAC / 4 Ref Frames
    Format settings, CABAC : Yes
    Format settings, Reference frames : 4 frames
    Codec ID : V_MPEG4/ISO/AVC
    Duration : 1 h 49 min
    Bit rate mode : Variable
    Bit rate : 35.5 Mb/s
    Maximum bit rate : 38.0 Mb/s
    Width : 1 920 pixels
    Height : 1 080 pixels
    Display aspect ratio : 16:9
    Frame rate mode : Constant
    Frame rate : 23.976 (24000/1001) FPS
    Color space : YUV
    Chroma subsampling : 4:2:0
    Bit depth : 8 bits
    Scan type : Progressive
    Bits/(Pixel*Frame) : 0.714
    Stream size : 27.2 GiB (87%)
    Title : MPEG-4 AVC Video / 36996 kbps / 1080p / 23.976 fps / 16:9 / High Profile 4.1
    Default : Yes
    Forced : No

    Audio #1
    ID : 2
    Format : DTS XLL X
    Format/Info : Digital Theater Systems
    Commercial name : DTS-HD Master Audio
    Codec ID : A_DTS
    Duration : 1 h 49 min
    Bit rate mode : Variable
    Bit rate : 4 961 kb/s
    Channel(s) : 8 channels
    Channel(s)_Original : Object Based
    ChannelLayout_Original : Object Based
    Sampling rate : 48.0 kHz
    Frame rate : 93.750 FPS (512 SPF)
    Bit depth : 24 bits
    Stream size : 3.80 GiB (12%)
    Title : DTS:X Master Audio / 7.1.2 / 48 kHz / 4961 kbps / 24-bit
    Language : Multiple languages
    Default : Yes
    Forced : No

    Audio #2
    ID : 3
    Format : FLAC
    Format/Info : Free Lossless Audio Codec
    Codec ID : A_FLAC
    Duration : 1 h 49 min
    Bit rate mode : Variable
    Bit rate : 425 kb/s
    Channel(s) : 2 channels
    Channel layout : L R
    Sampling rate : 48.0 kHz
    Frame rate : 11.719 FPS (4096 SPF)
    Bit depth : 16 bits
    Compression mode : Lossless
    Stream size : 334 MiB (1%)
    Title : Commentary with filmmakers Anisia Uzeyman and Saul Williams / FLAC Audio / 2.0 / 48 kHz / 425 kbps / 16-bit
    Writing library : libFLAC 1.3.4 (UTC 2022-02-20)
    Language : English
    Default : No
    Forced : No

    Text #1
    ID : 4
    Format : UTF-8
    Codec ID : S_TEXT/UTF8
    Codec ID/Info : UTF-8 Plain Text
    Duration : 1 h 43 min
    Bit rate : 37 b/s
    Count of elements : 935
    Stream size : 28.4 KiB (0%)
    Language : English
    Default : Yes
    Forced : No

    Text #2
    ID : 5
    Format : UTF-8
    Codec ID : S_TEXT/UTF8
    Codec ID/Info : UTF-8 Plain Text
    Duration : 1 h 49 min
    Bit rate : 40 b/s
    Count of elements : 1213
    Stream size : 32.6 KiB (0%)
    Title : SDH
    Language : English
    Default : No
    Forced : No

    Text #3
    ID : 6
    Format : PGS
    Codec ID : S_HDMV/PGS
    Codec ID/Info : Picture based subtitle format used on BDs/HD-DVDs
    Duration : 1 h 43 min
    Bit rate : 19.4 kb/s
    Count of elements : 1870
    Stream size : 14.4 MiB (0%)
    Language : English
    Default : No
    Forced : No

    Text #4
    ID : 7
    Format : PGS
    Codec ID : S_HDMV/PGS
    Codec ID/Info : Picture based subtitle format used on BDs/HD-DVDs
    Duration : 1 h 49 min
    Bit rate : 21.8 kb/s
    Count of elements : 2426
    Stream size : 17.0 MiB (0%)
    Title : SDH
    Language : English
    Default : No
    Forced : No

    Menu
    00:00:00.000 : en:Chapter 1
    00:09:34.032 : en:Chapter 2
    00:18:10.256 : en:Chapter 3
    00:29:01.907 : en:Chapter 4
    00:38:43.029 : en:Chapter 5
    00:46:48.347 : en:Chapter 6
    00:56:12.077 : en:Chapter 7
    01:03:59.544 : en:Chapter 8
    01:14:26.337 : en:Chapter 9
    01:27:18.358 : en:Chapter 10





    [​IMG]
    [​IMG]
    [​IMG]
    [​IMG]



    Fshare ~ 31.38GB

    Nội dung Ẩn:
    **Link đã được ẩn: Bạn click nút Like để lấy link download nhé.**
    Xem hướng dẫn
    4Share

    Nội dung Ẩn:
    **Link đã được ẩn: Bạn click nút Like để lấy link download nhé.**
    Xem hướng dẫn
    Sub

    https://subscene.com/subtitles/neptune-frost

    Tổng hợp phim 18+

    Link topic https://hdvietnam.xyz/threads/mutil...ng-nhat-ban-au-my-cap-nhat-hang-ngay.1796232/

    Nội dung Ẩn:
    **Link đã được ẩn: Bạn click nút Like để lấy link download nhé.**
    Xem hướng dẫn
    Tổng hợp phim full Menu (Thuyết minh+Sub Việt) bluray (nethd.org)

    Nội dung Ẩn:
    **Link đã được ẩn: Bạn click nút Like để lấy link download nhé.**
    Xem hướng dẫn
    Tổng hợp phim bộ Lồng tiếng, thuyết minh, sub việt

    Nội dung Ẩn:
    **Link đã được ẩn: Bạn click nút Like để lấy link download nhé.**
    Xem hướng dẫn
    Tổng hợp phim hàng ngày

    Link topic https://hdvietnam.xyz/threads/tong-hop-phim-bluray-remux-iso-cap-nhat-hang-ngay.1796055/

    Nội dung Ẩn:
    **Link đã được ẩn: Bạn click nút Like để lấy link download nhé.**
    Xem hướng dẫn
    Tổng hợp phim bluray Remux ISO 4K






    mhd

    720p

    1080p

    Thuyết minh

    Remux

    ISO
    Tags:

    Thấy hay chia sẻ ngay