FS [ Hành Động] Abduction 2011 Bluray 1080p Remux AVC DTS-HD MA 5 1 - EFPG-Truy Kích

Thảo luận trong '3D, BluRay gốc & Remux' bắt đầu bởi xemaydinh, 22/9/22.

  1. xemaydinh Uploader

    21 lượt xem
    Abduction 2011 Bluray 1080p Remux AVC DTS-HD MA 5 1 - EFPG

    Truy Kích

    [​IMG]


    Sau khi thấy tấm ảnh hồi nhỏ của mình trên một website tìm người mất tích, Nathan bắt đầu nghi ngờ chính những người mà cậu đang sống cùng và quyết tâm đi tìm lời giải đáp cho sự bí ẩn cuộc đời mình.

    General
    Abduction 2011 Bluray 1080p Remux AVC DTS-HD MA 5.1 - EFPG.mkv
    Format : Matroska
    Format version : Version 2
    File size : 19.6 GiB
    Duration : 1 h 45 min
    Overall bit rate mode : Variable
    Overall bit rate : 26.4 Mb/s
    Encoded date : UTC 2022-09-19 18:55:48
    Writing application : MakeMKV v1.17.1 win(x64-release)
    Writing library : libmakemkv v1.17.1 (1.3.10/1.5.2) win(x64-release)

    Video
    ID : 1
    ID in the original source medium : 4113 (0x1011)
    Format : VC-1
    Format profile : Advanced@L3
    Codec ID : V_MS/VFW/FOURCC / WVC1
    Codec ID/Hint : Microsoft
    Duration : 1 h 45 min
    Bit rate : 22.6 Mb/s
    Width : 1 920 pixels
    Height : 1 080 pixels
    Display aspect ratio : 16:9
    Frame rate mode : Constant
    Frame rate : 23.976 (24000/1001) FPS
    Color space : YUV
    Chroma subsampling : 4:2:0
    Bit depth : 8 bits
    Scan type : Progressive
    Compression mode : Lossy
    Bits/(Pixel*Frame) : 0.455
    Stream size : 16.8 GiB (86%)
    Language : English
    Default : No
    Forced : No
    Original source medium : Blu-ray

    Audio #1
    ID : 2
    ID in the original source medium : 4352 (0x1100)
    Format : DTS XLL
    Format/Info : Digital Theater Systems
    Commercial name : DTS-HD Master Audio
    Codec ID : A_DTS
    Duration : 1 h 45 min
    Bit rate mode : Variable
    Bit rate : 2 266 kb/s
    Channel(s) : 6 channels
    Channel layout : C L R Ls Rs LFE
    Sampling rate : 48.0 kHz
    Frame rate : 93.750 FPS (512 SPF)
    Bit depth : 16 bits
    Compression mode : Lossless
    Stream size : 1.68 GiB (9%)
    Title : Surround 5.1
    Language : English
    Default : Yes
    Forced : No
    Original source medium : Blu-ray

    Audio #2
    ID : 3
    ID in the original source medium : 4352 (0x1100)
    Format : DTS
    Format/Info : Digital Theater Systems
    Codec ID : A_DTS
    Duration : 1 h 45 min
    Bit rate mode : Constant
    Bit rate : 1 509 kb/s
    Channel(s) : 6 channels
    Channel layout : C L R Ls Rs LFE
    Sampling rate : 48.0 kHz
    Frame rate : 93.750 FPS (512 SPF)
    Bit depth : 16 bits
    Compression mode : Lossy
    Stream size : 1.12 GiB (6%)
    Title : Surround 5.1
    Language : English
    Default : No
    Forced : No
    Original source medium : Blu-ray

    Text
    ID : 4
    ID in the original source medium : 4608 (0x1200)
    Format : PGS
    Codec ID : S_HDMV/PGS
    Codec ID/Info : Picture based subtitle format used on BDs/HD-DVDs
    Duration : 1 h 45 min
    Bit rate : 27.6 kb/s
    Count of elements : 1660
    Stream size : 20.8 MiB (0%)
    Language : Dutch
    Default : Yes
    Forced : No
    Original source medium : Blu-ray

    Menu
    00:00:00.000 : en:Chapter 01
    00:10:28.961 : en:Chapter 02
    00:20:07.539 : en:Chapter 03
    00:30:08.598 : en:Chapter 04
    00:40:32.555 : en:Chapter 05
    00:50:09.715 : en:Chapter 06
    01:00:07.270 : en:Chapter 07
    01:10:11.165 : en:Chapter 08
    01:20:11.097 : en:Chapter 09
    01:30:50.278 : en:Chapter 10
    01:39:54.905 : en:Chapter 11


    [​IMG] [​IMG]
    [​IMG] [​IMG]
    [​IMG] [​IMG]


    Fshare ~19.58 GB

    Nội dung Ẩn:
    **Link đã được ẩn: Bạn click nút Like để lấy link download nhé.**
    Xem hướng dẫn
    4Share

    Nội dung Ẩn:
    **Link đã được ẩn: Bạn click nút Like để lấy link download nhé.**
    Xem hướng dẫn
    Sub Việt

    https://subscene.com/subtitles/abduction

    Tổng hợp phim 18+

    Link topic https://hdvietnam.xyz/threads/mutil...ng-nhat-ban-au-my-cap-nhat-hang-ngay.1796232/

    Nội dung Ẩn:
    **Link đã được ẩn: Bạn click nút Like để lấy link download nhé.**
    Xem hướng dẫn
    Tổng hợp phim full Menu (Thuyết minh+Sub Việt) bluray (nethd.org)

    Nội dung Ẩn:
    **Link đã được ẩn: Bạn click nút Like để lấy link download nhé.**
    Xem hướng dẫn
    Tổng hợp phim bộ Lồng tiếng, thuyết minh, sub việt

    Nội dung Ẩn:
    **Link đã được ẩn: Bạn click nút Like để lấy link download nhé.**
    Xem hướng dẫn
    Tổng hợp phim hàng ngày

    Link topic https://hdvietnam.xyz/threads/tong-hop-phim-bluray-remux-iso-cap-nhat-hang-ngay.1796055/

    Nội dung Ẩn:
    **Link đã được ẩn: Bạn click nút Like để lấy link download nhé.**
    Xem hướng dẫn
    Tổng hợp phim bluray Remux ISO 4K



    mhd

    720p

    1080p

    Thuyết minh

    Remux

    ISO
    Tags:

    Thấy hay chia sẻ ngay