FS [ Kinh Dị] Old Man 2022 1080p BluRay REMUX AVC DTS-HD MA 5 1-PiRaTeS -Lão Già Gân

Thảo luận trong '3D, BluRay gốc & Remux' bắt đầu bởi xemaydinh, 24/11/22.

  1. xemaydinh Uploader

    37 lượt xem
    Old Man 2022 1080p BluRay REMUX AVC DTS-HD MA 5 1-PiRaTeS

    Lão Già Gân

    [​IMG]
    Lão Già Gân The Old Man 2022 là một cựu đặc nhiệm CIA, người đã sống ngoài lưới điện trong một thời gian khá dài. Khi một sát thủ đến và cố gắng đưa Chase ra ngoài, đặc nhiệm cũ phải bỏ chạy. Trong khi chạy trốn, Chase thuê một căn phòng từ Zoe McDonald, người mà anh ta buộc phải hợp tác với nhau khi anh ta đấu tranh cho sự thật. Khi Chase trốn thoát, Trợ lý Giám đốc FBI về Phản gián, Harold Harper, được yêu cầu truy lùng anh ta vì quá khứ phức tạp của anh ta với kẻ đào tẩu bất hảo. Làm việc cùng với Harper là người bảo trợ của anh, Đặc vụ Angela Adams, và Đặc vụ Raymond Waters, cũng như Julian Carson, một nhà thầu hoạt động đặc biệt được đào tạo chuyên sâu được cử đi theo đuổi lão già gân Chase

    General
    Unique ID : 184085636122490913861002160122671039985 (0x8A7D9A98CBDFCADBA550E12D6E6E85F1)
    Complete name : Old.Man.2022.1080p.BluRay.REMUX.AVC.DTS-HD.MA.5.1-PiRaTeS.mkv
    Format : Matroska
    Format version : Version 2
    File size : 14.9 GiB
    Duration : 1 h 37 min
    Overall bit rate mode : Variable
    Overall bit rate : 21.9 Mb/s
    Encoded date : UTC 2022-11-24 05:52:06
    Writing application : MakeMKV v1.17.2 linux(x64-release)
    Writing library : libmakemkv v1.17.2 (1.3.10/1.5.2) x86_64-linux-gnu

    Video
    ID : 1
    ID in the original source medium : 4113 (0x1011)
    Format : AVC
    Format/Info : Advanced Video Codec
    Format profile : High@L4.1
    Format settings : CABAC / 4 Ref Frames
    Format settings, CABAC : Yes
    Format settings, Reference frames : 4 frames
    Codec ID : V_MPEG4/ISO/AVC
    Duration : 1 h 37 min
    Bit rate mode : Variable
    Bit rate : 20.0 Mb/s
    Maximum bit rate : 38.0 Mb/s
    Width : 1 920 pixels
    Height : 1 080 pixels
    Display aspect ratio : 16:9
    Frame rate mode : Constant
    Frame rate : 23.976 (24000/1001) FPS
    Color space : YUV
    Chroma subsampling : 4:2:0
    Bit depth : 8 bits
    Scan type : Progressive
    Bits/(Pixel*Frame) : 0.401
    Stream size : 13.6 GiB (91%)
    Language : English
    Default : No
    Forced : No
    Original source medium : Blu-ray

    Audio
    ID : 2
    ID in the original source medium : 4352 (0x1100)
    Format : DTS XLL
    Format/Info : Digital Theater Systems
    Commercial name : DTS-HD Master Audio
    Codec ID : A_DTS
    Duration : 1 h 37 min
    Bit rate mode : Variable
    Bit rate : 1 843 kb/s
    Channel(s) : 6 channels
    Channel layout : C L R Ls Rs LFE
    Sampling rate : 48.0 kHz
    Frame rate : 93.750 FPS (512 SPF)
    Bit depth : 16 bits
    Compression mode : Lossless
    Stream size : 1.26 GiB (8%)
    Language : English
    Default : Yes
    Forced : No
    Original source medium : Blu-ray

    Text #1
    ID : 3
    ID in the original source medium : 4608 (0x1200)
    Format : PGS
    Codec ID : S_HDMV/PGS
    Codec ID/Info : Picture based subtitle format used on BDs/HD-DVDs
    Duration : 1 h 36 min
    Bit rate : 43.7 kb/s
    Frame rate : 0.530 FPS
    Count of elements : 3064
    Stream size : 30.1 MiB (0%)
    Language : English
    Default : No
    Forced : No
    Original source medium : Blu-ray

    Text #2
    ID : 5
    ID in the original source medium : 4609 (0x1201)
    Format : PGS
    Codec ID : S_HDMV/PGS
    Codec ID/Info : Picture based subtitle format used on BDs/HD-DVDs
    Duration : 1 h 35 min
    Bit rate : 33.7 kb/s
    Frame rate : 0.422 FPS
    Count of elements : 2426
    Stream size : 23.1 MiB (0%)
    Language : Spanish
    Default : No
    Forced : No
    Original source medium : Blu-ray

    Menu
    00:00:00.000 : en:Chapter 01
    00:09:41.497 : en:Chapter 02
    00:18:51.755 : en:Chapter 03
    00:29:47.285 : en:Chapter 04
    00:40:33.097 : en:Chapter 05
    00:53:39.424 : en:Chapter 06
    01:05:07.778 : en:Chapter 07
    01:16:55.777 : en:Chapter 08
    01:24:58.927 : en:Chapter 09



    [​IMG] [​IMG]
    [​IMG] [​IMG]
    [​IMG] [​IMG]

    Fshare ~ 14.92GB
    Nội dung Ẩn:
    **Link đã được ẩn: Bạn click nút Like để lấy link download nhé.**
    Xem hướng dẫn
    4Share
    Nội dung Ẩn:
    **Link đã được ẩn: Bạn click nút Like để lấy link download nhé.**
    Xem hướng dẫn
    Sub

    https://subscene.com/subtitles/old-man

    Tổng hợp phim 18+
    Link topic https://hdvietnam.xyz/threads/mutil...ng-nhat-ban-au-my-cap-nhat-hang-ngay.1796232/
    Nội dung Ẩn:
    **Link đã được ẩn: Bạn click nút Like để lấy link download nhé.**
    Xem hướng dẫn
    Tổng hợp phim full Menu (Thuyết minh+Sub Việt) bluray (nethd.org)
    Nội dung Ẩn:
    **Link đã được ẩn: Bạn click nút Like để lấy link download nhé.**
    Xem hướng dẫn
    Tổng hợp phim bộ Lồng tiếng, thuyết minh, sub việt
    Nội dung Ẩn:
    **Link đã được ẩn: Bạn click nút Like để lấy link download nhé.**
    Xem hướng dẫn
    Tổng hợp phim hàng ngày
    Link topic https://hdvietnam.xyz/threads/tong-hop-phim-bluray-remux-iso-cap-nhat-hang-ngay.1796055/
    Nội dung Ẩn:
    **Link đã được ẩn: Bạn click nút Like để lấy link download nhé.**
    Xem hướng dẫn
    Tổng hợp phim bluray Remux ISO 4K

    mhd
    720p
    1080p
    Thuyết minh
    Remux
    ISO
    Tags:
    gogle and Ryan Phan like this.

    Thấy hay chia sẻ ngay