FS Paris By Night 114 Bluray Remux 1080i AVC 2Audio AC3 - 1975-2015 : Tôi Là Người Việt Nam

Thảo luận trong '3D, BluRay gốc & Remux' bắt đầu bởi henryduc96, 8/7/15.

  1. henryduc96 Uploader

    1,114 lượt xem
    Paris By Night 114 Bluray Remux 1080i AVC 2Audio AC3 - 1975-2015 : Tôi Là Người Việt Nam
    [​IMG]


    [​IMG]
    [​IMG]
    Code:
    General
    ID                             : 1 (0x1)
    Format                         : BDAV
    Format/Info                    : Blu-ray Video
    File size                      : 40.3 GiB
    Duration                       : 6h 9mn
    Overall bit rate mode          : Variable
    Overall bit rate               : 15.6 Mbps
    Maximum Overall bit rate       : 35.5 Mbps
    
    Video
    ID                             : 4113 (0x1011)
    Menu ID                        : 1 (0x1)
    Format                         : AVC
    Format/Info                    : Advanced Video Codec
    Format profile                 : High@L4.1
    Format settings, CABAC         : Yes
    Format settings, ReFrames      : 4 frames
    Codec ID                       : 27
    Duration                       : 6h 9mn
    Bit rate mode                  : Variable
    Bit rate                       : 14.1 Mbps
    Maximum bit rate               : 30.0 Mbps
    Width                          : 1 920 pixels
    Height                         : 1 080 pixels
    Display aspect ratio           : 16:9
    Frame rate                     : 29.970 fps
    Standard                       : NTSC
    Color space                    : YUV
    Chroma subsampling             : 4:2:0
    Bit depth                      : 8 bits
    Scan type                      : Interlaced
    Scan order                     : Top Field First
    Bits/(Pixel*Frame)             : 0.227
    Stream size                    : 36.4 GiB (90%)
    Color primaries                : BT.709
    Transfer characteristics       : BT.709
    Matrix coefficients            : BT.709
    
    Audio #1
    ID                             : 4352 (0x1100)
    Menu ID                        : 1 (0x1)
    Format                         : AC-3
    Format/Info                    : Audio Coding 3
    Mode extension                 : CM (complete main)
    Format settings, Endianness    : Big
    Codec ID                       : 129
    Duration                       : 6h 9mn
    Bit rate mode                  : Constant
    Bit rate                       : 448 Kbps
    Channel(s)                     : 2 channels
    Channel positions              : Front: L R
    Sampling rate                  : 48.0 KHz
    Bit depth                      : 16 bits
    Compression mode               : Lossy
    Stream size                    : 1.15 GiB (3%)
    Language                       : English
    
    Audio #2
    ID                             : 4353 (0x1101)
    Menu ID                        : 1 (0x1)
    Format                         : AC-3
    Format/Info                    : Audio Coding 3
    Mode extension                 : CM (complete main)
    Format settings, Endianness    : Big
    Codec ID                       : 129
    Duration                       : 6h 9mn
    Bit rate mode                  : Constant
    Bit rate                       : 448 Kbps
    Channel(s)                     : 6 channels
    Channel positions              : Front: L C R, Side: L R, LFE
    Sampling rate                  : 48.0 KHz
    Bit depth                      : 16 bits
    Compression mode               : Lossy
    Stream size                    : 1.15 GiB (3%)
    Language                       : English
    
    Source Bluray do mod hbinhlove2003 cung cấp . Thanks
    
    [​IMG]

    [​IMG]
    [video=youtube;aIc1V6eNikA]

    [​IMG]
    [​IMG]
    Link FSHARE:
    Bạn nhấn nút Thanks, sau đó nhấn F5 để lấy link nhé!
    [​IMG]
    Link TENLUA:
    Bạn nhấn nút Thanks, sau đó nhấn F5 để lấy link nhé!
    CAM KẾT CHẤT LƯỢNG: Tất cả những phim mình up ở đây đều là hàng chất lượng cao 100%, được lấy từ nguồn rõ ràng, xem KHÔNG GIẬT và phù hợp với mọi loại PC, laptop, HD player, TV,.. Do đó mọi người cứ yên tâm mà xem không sợ bị lỗi.
    List phim: mHD - 720p - 1080p - BluRay Remux {Cập Nhật Hằng Giờ}
    [​IMG]

    Thấy hay chia sẻ ngay

  2. truongthingochoa

    truongthingochoa Thành viên

    Rất mong các bác làm gấp bản M-HD. Bản này quá nặng. Hóng!
  3. henryduc96

    henryduc96 Uploader

    bản thúy nga nào CHẢ NẶNG hả bác :))
    bản NẶNG thì xem ĐÃ HƠN bản NHẸ chứ ^^
    để mình làm rùi sẽ up lên sau
  4. mrphattruong

    mrphattruong Thành viên mới

    720p được rồi bác ơi, 1080i remux nặng quá ngán down.
  5. xuanduoc12

    xuanduoc12 Thành viên mới

    chưa có tenlua sao bác
  6. truongthingochoa

    truongthingochoa Thành viên

    Chờ bản rip mà chả thấy ai rip nhỉ. Các nhóm encode không thấy nhóm nào ra tay cả.