FS Paris By Night 114 Bluray Remux 1080i AVC 2Audio AC3 - 1975-2015: Tôi Là Người Việt Nam

Thảo luận trong 'Phim Ca Nhạc' bắt đầu bởi Lucky Star, 17/7/15.

  1. Lucky Star Uploader

    1,064 lượt xem
    Paris By Night 114 Bluray - 1975-2015 - Tôi Là Người Việt Nam

    [​IMG]

    Nội dung chương trình Paris By Night 114

    Code:
    DISC 1
    1. Lời Cám Ơn Hợp Ca
    2. Clip & Phỏng Vấn:
    US Navy Rear Admiral (Ret.) William W. Mathis
    3. Thuyền Viễn Xứ Ngọc Hạ
    4. Hận Ly Hương Trần Thái Hoà
    5. Tóc Xưa Bằng Kiều
    6. Clip & Phỏng Vấn: Bác Sĩ Đinh Xuân Anh Tuấn
    7. Ừ Thì Thôi Như Quỳnh
    8: Clip: Spoken Word Artist Bảo Phi
    9. Refuge Requiem - Bảo Phi
    10. Clip: Mr. Ted Schweitzer
    Phỏng Vấn: Max Schweitzer
    Nhà Văn Nhật Tiến cảm tạ Ted Schweitzer
    11. Clip Cường Vũ
    12. It’s Mostly Residual Cường Vũ (Trumpet), Stomu Takeishi (Bass), Ted Poor (Drums)
    13. Clip & Phỏng Vấn: Nhà Văn Lan Cao
    14. Hai Chiếc Bóng Cô Đơn Lương Tùng Quang - Kỳ Phương Uyên
    15. Clip & Phỏng Vấn: NASA Hall of Fame Engineer Trịnh Tiến Tinh
    16. LK Chiều Lên Bản Thượng - Khúc Ca Đồng Tháp - Chiều Làng Em Tâm Đoan - Hương Thủy
    17. Clip & Phỏng Vấn: Composer / Professor PQ Phan
    18. Aria Trích Đoạn “Câu Chuyện Bà Thị Kính” (PQ Phan)
    Teresa Mai (Vocals), Bảo Thi (Violin), Nguyễn Hải Hoàng (Piano)
    19. Phỏng Vấn Châu Đình An
    20. 40 Năm Rồi Sao Ngọc Anh
    21. Clip & Phỏng Vấn: Fashion Designer Nhã Khanh
    22. Con Đường Xưa Em Đi Hoàng Nhung - Ngọc Ngữ
    23. Tâm Sự Gửi Về Đâu Tuấn Ngọc
    
    DISC 2
    1. Phần đầu đĩa 2
    2. Clip & Phỏng Vấn: Texas State Representative Hubert Võ
    3. Tình Thương Mái Lá Hạ Vy - Bảo Khánh
    4. Clip: Culinary Gold Medalist Chef Khải Dương
    5. Chef Khải Dương Với Món Ăn Huy Chương Vàng Beijing 2012
    6. Clip & Phỏng Vấn: News Anchor Thúy Vũ
    7. Những Ngày Thơ Mộng Thu Phương
    8. Đố Vui Khán Giả - phần thưởng của:
    Mirako Japan, UNO IP Box,
    Golden Health Australia, Trung Tâm Trẻ Khoẻ Đẹp
    9. Clip Võ Vân Ánh
    10. Hát Xẩm Lưu Lạc – Vân Ánh Vanessa Võ and The VA’V with
    Alex Kelly (Cello), Jason Jong (Taiko),
    PC Munoz (Drums / Percussion)
    11. Clip & Phỏng Vấn: Mayor Tạ Đức Trí
    12. Sunday Buồn Mai Tiến Dũng - Ánh Minh
    13. Clip & Phỏng Vấn: Historian Nancy Bùi
    14. Hài Kịch “Tình Rồng Duyên Tiên” Hồng Đào - Quang Minh - Bằng Kiều - Diễm Sương
    15. Đố Vui Khán Giả - phần thưởng của:
    USIS, Luraco Technologies
    16. Clip Nguyên Lê
    17. Thăng Long Nguyên Lê (Electric Guitar), Stomu Takeishi (Bass); Ted Poor (Drums)
    18. Clip & Phỏng Vấn: Lt. Col. Thomas Nguyễn
    
    DISC 3
    1. LK Quê Nghèo & Mẹ Hương Lan - Hương Giang - Hoàng Nhung
    2. Đố Vui Khán Giả - phần thưởng của:
    Lover’s Hair Salon, Lovérse, Serum, Lông Mi Lashes by Daniel, Cali Beauty Supply
    3. Dạ Cổ Hoài Lang Hương Thanh (Vocals), Nguyên Lê (Electric Guitar), Jason Jong (Taiko Drums)
    4. Clip: Major Diệp Khanh
    5. Lệ Vu Quy Trịnh Lam - Diễm Sương
    6. Còn Yêu Em Mãi Thanh Hà - Thiên Tôn
    7. LK: Phố Vẫn Xưa Đình Bảo
    Lời Tình Buồn Lam Anh
    8. Clip & Phỏng Vấn:
    US Naval Training Center Commander Hùng Cao
    9. Phỏng Vấn: Daniel Phú
    10. Vỗ Cái Trống Cơm Quỳnh Vi
    11. Clip & Phỏng Vấn: Figure Skater Nam Nguyễn
    12. LK Đoản Khúc Cuối Cho Em & Em Về Nào Có Hay Minh Tuyết - Don Hồ
    13. Little Saigon Justin Nguyễn
    14. Đố Vui Khán Giả - phần thưởng của:
    Fucoidan, Viện Thẩm Mỹ Hạnh Phước, Blue Pure Australia, Trung Tâm Mua Sắm Sài Gòn Nguyễn Kim
    15. Lý Ngựa Ô Nguyên Lê (Electric Guitar); Cường Vũ (Trumpet),
    Vân-Ánh Vanessa Võ (Đàn Tranh); Alex Kelly (Cello),
    PC Munoz (Drums / Percussion); Jason Jong (Taiko)
    16. Tôi Là Người Việt Nam Thiên Tôn - Ánh Minh - Trịnh Lam - Hương Giang
    17. Lời Kết Thúc – Nguyễn Ngọc Ngạn, Kỳ Duyên
    18. LK Làng Tôi & Những Nẻo Đường Việt Nam Mai Thiên Vân - Quang Lê
    19. Finale
    Media Info
    Code:
    General
    ID                             : 1 (0x1)
    Complete name                  : Paris.By.Night.114.Bluray.Remux.1080i.AVC.2Audio.AC3.m2ts
    Format                         : BDAV
    Format/Info                    : Blu-ray Video
    File size                      : 40.3 GiB
    Duration                       : 6h 9mn
    Overall bit rate mode          : Variable
    Overall bit rate               : 15.6 Mbps
    Maximum Overall bit rate       : 35.5 Mbps
    
    Video
    ID                             : 4113 (0x1011)
    Menu ID                        : 1 (0x1)
    Format                         : AVC
    Format/Info                    : Advanced Video Codec
    Format profile                 : High@L4.1
    Format settings, CABAC         : Yes
    Format settings, ReFrames      : 4 frames
    Codec ID                       : 27
    Duration                       : 6h 9mn
    Bit rate mode                  : Variable
    Bit rate                       : 14.1 Mbps
    Maximum bit rate               : 30.0 Mbps
    Width                          : 1 920 pixels
    Height                         : 1 080 pixels
    Display aspect ratio           : 16:9
    Frame rate                     : 29.970 fps
    Standard                       : NTSC
    Color space                    : YUV
    Chroma subsampling             : 4:2:0
    Bit depth                      : 8 bits
    Scan type                      : Interlaced
    Scan order                     : Top Field First
    Bits/(Pixel*Frame)             : 0.227
    Stream size                    : 36.4 GiB (90%)
    Color range                    : Limited
    Color primaries                : BT.709
    Transfer characteristics       : BT.709
    Matrix coefficients            : BT.709
    
    Audio #1
    ID                             : 4352 (0x1100)
    Menu ID                        : 1 (0x1)
    Format                         : AC-3
    Format/Info                    : Audio Coding 3
    Mode extension                 : CM (complete main)
    Format settings, Endianness    : Big
    Codec ID                       : 129
    Duration                       : 6h 9mn
    Bit rate mode                  : Constant
    Bit rate                       : 448 Kbps
    Channel(s)                     : 2 channels
    Channel positions              : Front: L R
    Sampling rate                  : 48.0 KHz
    Compression mode               : Lossy
    Stream size                    : 1.15 GiB (3%)
    Language                       : English
    
    Audio #2
    ID                             : 4353 (0x1101)
    Menu ID                        : 1 (0x1)
    Format                         : AC-3
    Format/Info                    : Audio Coding 3
    Mode extension                 : CM (complete main)
    Format settings, Endianness    : Big
    Codec ID                       : 129
    Duration                       : 6h 9mn
    Bit rate mode                  : Constant
    Bit rate                       : 448 Kbps
    Channel(s)                     : 6 channels
    Channel positions              : Front: L C R, Side: L R, LFE
    Sampling rate                  : 48.0 KHz
    Compression mode               : Lossy
    Stream size                    : 1.15 GiB (3%)
    Language                       : English
    Trailer


    Screenshots
    [​IMG]

    Link download

    1 Link Fshare
    1 Link Up.4share

    Bản mHD gồm DVD2, DVD5
    http://taiphimhd.com/threads/dai-nhac-hoi-paris-by-night-114-1975-2015-toi-la-nguoi-viet-nam.22523/
    http://taiphimhd.com/threads/dai-nhac-hoi-paris-by-night-114-1975-2015-toi-la-nguoi-viet-nam.22524/

    Thấy hay chia sẻ ngay