FS The Expendables 3 (2014)DVDSCR (NL subs)NLtoppers~ Biệt Đội Đánh Thuê 3

Thảo luận trong 'DVDrip,CAM, TS...' bắt đầu bởi henryduc96, 28/7/14.

Tags:
  1. henryduc96 Uploader

    3,901 lượt xem
    The Expendables 3 (2014)DVDSCR (NL subs)NLtoppers
    Biệt Đội Đánh Thuê 3

    [​IMG]
    [​IMG]
    [​IMG]
    Code:
    General
    Complete name                            : The Expendables 3 (2014)DVDSCR (NL subs)NLtoppers\DVD\VIDEO_TS\VTS_01_1.VOB
    Format                                   : MPEG-PS
    File size                                : 1 024 MiB
    Duration                                 : 28mn 26s
    Overall bit rate mode                    : Variable
    Overall bit rate                         : 5 033 Kbps
    
    Video
    ID                                       : 224 (0xE0)
    Format                                   : MPEG Video
    Format version                           : Version 2
    Format profile                           : Main@Main
    Format settings, BVOP                    : Yes
    Format settings, Matrix                  : Custom
    Format settings, GOP                     : Variable
    Duration                                 : 28mn 26s
    Bit rate mode                            : Variable
    Bit rate                                 : 4 709 Kbps
    Maximum bit rate                         : 8 000 Kbps
    Width                                    : 720 pixels
    Height                                   : 480 pixels
    Display aspect ratio                     : 16:9
    Frame rate                               : 23.976 fps
    Standard                                 : NTSC
    Color space                              : YUV
    Chroma subsampling                       : 4:2:0
    Bit depth                                : 8 bits
    Scan type                                : Progressive
    Scan order                               : 2:3 Pulldown
    Compression mode                         : Lossy
    Bits/(Pixel*Frame)                       : 0.568
    Time code of first frame                 : 00:00:00:00
    Time code source                         : Group of pictures header
    Stream size                              : 958 MiB (94%)
    Color primaries                          : BT.601 NTSC
    Transfer characteristics                 : BT.601
    Matrix coefficients                      : BT.601
    
    Audio
    ID                                       : 189 (0xBD)-128 (0x80)
    Format                                   : AC-3
    Format/Info                              : Audio Coding 3
    Mode extension                           : CM (complete main)
    Format settings, Endianness              : Big
    Muxing mode                              : DVD-Video
    Duration                                 : 28mn 26s
    Bit rate mode                            : Constant
    Bit rate                                 : 224 Kbps
    Channel(s)                               : 2 channels
    Channel positions                        : Front: L R
    Sampling rate                            : 48.0 KHz
    Bit depth                                : 16 bits
    Compression mode                         : Lossy
    Stream size                              : 45.6 MiB (4%)
    
    Text #1
    ID                                       : 189 (0xBD)-32 (0x20)
    Format                                   : RLE
    Format/Info                              : Run-length encoding
    Muxing mode                              : DVD-Video
    
    Text #2
    ID                                       : 189 (0xBD)-33 (0x21)
    Format                                   : RLE
    Format/Info                              : Run-length encoding
    Muxing mode                              : DVD-Video
    
    Text #3
    ID                                       : 189 (0xBD)-34 (0x22)
    Format                                   : RLE
    Format/Info                              : Run-length encoding
    Muxing mode                              : DVD-Video
    
    Text #4
    ID                                       : 189 (0xBD)-35 (0x23)
    Format                                   : RLE
    Format/Info                              : Run-length encoding
    Muxing mode                              : DVD-Video
    
    Text #5
    ID                                       : 189 (0xBD)-36 (0x24)
    Format                                   : RLE
    Format/Info                              : Run-length encoding
    Muxing mode                              : DVD-Video
    
    Text #6
    ID                                       : 189 (0xBD)-37 (0x25)
    Format                                   : RLE
    Format/Info                              : Run-length encoding
    Muxing mode                              : DVD-Video
    
    Menu
    Code:
    General
    Complete name                            : The Expendables 3 (2014)DVDSCR (NL subs)NLtoppers\DVD\VIDEO_TS\VTS_01_2.VOB
    Format                                   : MPEG-PS
    File size                                : 1 024 MiB
    Duration                                 : 29mn 10s
    Overall bit rate mode                    : Variable
    Overall bit rate                         : 4 907 Kbps
    
    Video
    ID                                       : 224 (0xE0)
    Format                                   : MPEG Video
    Format version                           : Version 2
    Format profile                           : Main@Main
    Format settings, BVOP                    : Yes
    Format settings, Matrix                  : Custom
    Format settings, GOP                     : Variable
    Duration                                 : 29mn 10s
    Bit rate mode                            : Variable
    Bit rate                                 : 4 585 Kbps
    Maximum bit rate                         : 8 000 Kbps
    Width                                    : 720 pixels
    Height                                   : 480 pixels
    Display aspect ratio                     : 16:9
    Frame rate                               : 23.976 fps
    Standard                                 : NTSC
    Color space                              : YUV
    Chroma subsampling                       : 4:2:0
    Bit depth                                : 8 bits
    Scan type                                : Progressive
    Scan order                               : 2:3 Pulldown
    Compression mode                         : Lossy
    Bits/(Pixel*Frame)                       : 0.553
    Time code of first frame                 : 00:28:25:11
    Time code source                         : Group of pictures header
    Stream size                              : 957 MiB (93%)
    Color primaries                          : BT.601 NTSC
    Transfer characteristics                 : BT.601
    Matrix coefficients                      : BT.601
    
    Audio
    ID                                       : 189 (0xBD)-128 (0x80)
    Format                                   : AC-3
    Format/Info                              : Audio Coding 3
    Mode extension                           : CM (complete main)
    Format settings, Endianness              : Big
    Muxing mode                              : DVD-Video
    Duration                                 : 29mn 10s
    Bit rate mode                            : Constant
    Bit rate                                 : 224 Kbps
    Channel(s)                               : 2 channels
    Channel positions                        : Front: L R
    Sampling rate                            : 48.0 KHz
    Bit depth                                : 16 bits
    Compression mode                         : Lossy
    Delay relative to video                  : -755ms
    Stream size                              : 46.7 MiB (5%)
    
    Text #1
    ID                                       : 189 (0xBD)-32 (0x20)
    Format                                   : RLE
    Format/Info                              : Run-length encoding
    Muxing mode                              : DVD-Video
    Delay relative to video                  : -150ms
    
    Text #2
    ID                                       : 189 (0xBD)-33 (0x21)
    Format                                   : RLE
    Format/Info                              : Run-length encoding
    Muxing mode                              : DVD-Video
    Delay relative to video                  : -150ms
    
    Text #3
    ID                                       : 189 (0xBD)-34 (0x22)
    Format                                   : RLE
    Format/Info                              : Run-length encoding
    Muxing mode                              : DVD-Video
    Delay relative to video                  : -150ms
    
    Text #4
    ID                                       : 189 (0xBD)-35 (0x23)
    Format                                   : RLE
    Format/Info                              : Run-length encoding
    Muxing mode                              : DVD-Video
    Delay relative to video                  : -150ms
    
    Text #5
    ID                                       : 189 (0xBD)-36 (0x24)
    Format                                   : RLE
    Format/Info                              : Run-length encoding
    Muxing mode                              : DVD-Video
    Delay relative to video                  : -150ms
    
    Text #6
    ID                                       : 189 (0xBD)-37 (0x25)
    Format                                   : RLE
    Format/Info                              : Run-length encoding
    Muxing mode                              : DVD-Video
    Delay relative to video                  : -150ms
    
    Menu
    Code:
    General
    Complete name                            : The Expendables 3 (2014)DVDSCR (NL subs)NLtoppers\DVD\VIDEO_TS\VTS_01_3.VOB
    Format                                   : MPEG-PS
    File size                                : 1 024 MiB
    Duration                                 : 30mn 55s
    Overall bit rate mode                    : Variable
    Overall bit rate                         : 4 630 Kbps
    
    Video
    ID                                       : 224 (0xE0)
    Format                                   : MPEG Video
    Format version                           : Version 2
    Format profile                           : Main@Main
    Format settings, BVOP                    : Yes
    Format settings, Matrix                  : Custom
    Format settings, GOP                     : Variable
    Duration                                 : 30mn 55s
    Bit rate mode                            : Variable
    Bit rate                                 : 4 314 Kbps
    Maximum bit rate                         : 8 000 Kbps
    Width                                    : 720 pixels
    Height                                   : 480 pixels
    Display aspect ratio                     : 16:9
    Frame rate                               : 23.976 fps
    Standard                                 : NTSC
    Color space                              : YUV
    Chroma subsampling                       : 4:2:0
    Bit depth                                : 8 bits
    Scan type                                : Progressive
    Scan order                               : 2:3 Pulldown
    Compression mode                         : Lossy
    Bits/(Pixel*Frame)                       : 0.521
    Time code of first frame                 : 00:57:34:05
    Time code source                         : Group of pictures header
    Stream size                              : 954 MiB (93%)
    Color primaries                          : BT.601 NTSC
    Transfer characteristics                 : BT.601
    Matrix coefficients                      : BT.601
    
    Audio
    ID                                       : 189 (0xBD)-128 (0x80)
    Format                                   : AC-3
    Format/Info                              : Audio Coding 3
    Mode extension                           : CM (complete main)
    Format settings, Endianness              : Big
    Muxing mode                              : DVD-Video
    Duration                                 : 30mn 55s
    Bit rate mode                            : Constant
    Bit rate                                 : 224 Kbps
    Channel(s)                               : 2 channels
    Channel positions                        : Front: L R
    Sampling rate                            : 48.0 KHz
    Bit depth                                : 16 bits
    Compression mode                         : Lossy
    Delay relative to video                  : -680ms
    Stream size                              : 49.5 MiB (5%)
    
    Text #1
    ID                                       : 189 (0xBD)-32 (0x20)
    Format                                   : RLE
    Format/Info                              : Run-length encoding
    Muxing mode                              : DVD-Video
    Delay relative to video                  : 751ms
    
    Text #2
    ID                                       : 189 (0xBD)-33 (0x21)
    Format                                   : RLE
    Format/Info                              : Run-length encoding
    Muxing mode                              : DVD-Video
    Delay relative to video                  : 751ms
    
    Text #3
    ID                                       : 189 (0xBD)-34 (0x22)
    Format                                   : RLE
    Format/Info                              : Run-length encoding
    Muxing mode                              : DVD-Video
    Delay relative to video                  : 751ms
    
    Text #4
    ID                                       : 189 (0xBD)-35 (0x23)
    Format                                   : RLE
    Format/Info                              : Run-length encoding
    Muxing mode                              : DVD-Video
    Delay relative to video                  : 751ms
    
    Text #5
    ID                                       : 189 (0xBD)-36 (0x24)
    Format                                   : RLE
    Format/Info                              : Run-length encoding
    Muxing mode                              : DVD-Video
    Delay relative to video                  : 751ms
    
    Text #6
    ID                                       : 189 (0xBD)-37 (0x25)
    Format                                   : RLE
    Format/Info                              : Run-length encoding
    Muxing mode                              : DVD-Video
    Delay relative to video                  : 751ms
    
    Menu
    Code:
    General
    Complete name                            : The Expendables 3 (2014)DVDSCR (NL subs)NLtoppers\DVD\VIDEO_TS\VTS_01_4.VOB
    Format                                   : MPEG-PS
    File size                                : 1 024 MiB
    Duration                                 : 27mn 52s
    Overall bit rate mode                    : Variable
    Overall bit rate                         : 5 137 Kbps
    
    Video
    ID                                       : 224 (0xE0)
    Format                                   : MPEG Video
    Format version                           : Version 2
    Format profile                           : Main@Main
    Format settings, BVOP                    : Yes
    Format settings, Matrix                  : Custom
    Format settings, GOP                     : Variable
    Duration                                 : 27mn 51s
    Bit rate mode                            : Variable
    Bit rate                                 : 4 811 Kbps
    Maximum bit rate                         : 8 000 Kbps
    Width                                    : 720 pixels
    Height                                   : 480 pixels
    Display aspect ratio                     : 16:9
    Frame rate                               : 23.976 fps
    Standard                                 : NTSC
    Color space                              : YUV
    Chroma subsampling                       : 4:2:0
    Bit depth                                : 8 bits
    Scan type                                : Progressive
    Scan order                               : 2:3 Pulldown
    Compression mode                         : Lossy
    Bits/(Pixel*Frame)                       : 0.581
    Time code of first frame                 : 01:28:27:23
    Time code source                         : Group of pictures header
    Stream size                              : 959 MiB (94%)
    Color primaries                          : BT.601 NTSC
    Transfer characteristics                 : BT.601
    Matrix coefficients                      : BT.601
    
    Audio
    ID                                       : 189 (0xBD)-128 (0x80)
    Format                                   : AC-3
    Format/Info                              : Audio Coding 3
    Mode extension                           : CM (complete main)
    Format settings, Endianness              : Big
    Muxing mode                              : DVD-Video
    Duration                                 : 27mn 52s
    Bit rate mode                            : Constant
    Bit rate                                 : 224 Kbps
    Channel(s)                               : 2 channels
    Channel positions                        : Front: L R
    Sampling rate                            : 48.0 KHz
    Bit depth                                : 16 bits
    Compression mode                         : Lossy
    Delay relative to video                  : -726ms
    Stream size                              : 44.6 MiB (4%)
    
    Menu
    Code:
    General
    Complete name                            : The Expendables 3 (2014)DVDSCR (NL subs)NLtoppers\DVD\VIDEO_TS\VTS_01_5.VOB
    Format                                   : MPEG-PS
    File size                                : 375 MiB
    Duration                                 : 9mn 51s
    Overall bit rate mode                    : Variable
    Overall bit rate                         : 5 314 Kbps
    
    Video
    ID                                       : 224 (0xE0)
    Format                                   : MPEG Video
    Format version                           : Version 2
    Format profile                           : Main@Main
    Format settings, BVOP                    : Yes
    Format settings, Matrix                  : Custom
    Format settings, GOP                     : M=3, N=12
    Duration                                 : 9mn 50s
    Bit rate mode                            : Variable
    Bit rate                                 : 4 985 Kbps
    Maximum bit rate                         : 8 000 Kbps
    Width                                    : 720 pixels
    Height                                   : 480 pixels
    Display aspect ratio                     : 16:9
    Frame rate                               : 23.976 fps
    Standard                                 : NTSC
    Color space                              : YUV
    Chroma subsampling                       : 4:2:0
    Bit depth                                : 8 bits
    Scan type                                : Progressive
    Scan order                               : 2:3 Pulldown
    Compression mode                         : Lossy
    Bits/(Pixel*Frame)                       : 0.602
    Time code of first frame                 : 01:56:18:11
    Time code source                         : Group of pictures header
    Stream size                              : 351 MiB (94%)
    Color primaries                          : BT.601 NTSC
    Transfer characteristics                 : BT.601
    Matrix coefficients                      : BT.601
    
    Audio
    ID                                       : 189 (0xBD)-128 (0x80)
    Format                                   : AC-3
    Format/Info                              : Audio Coding 3
    Mode extension                           : CM (complete main)
    Format settings, Endianness              : Big
    Muxing mode                              : DVD-Video
    Duration                                 : 9mn 51s
    Bit rate mode                            : Constant
    Bit rate                                 : 224 Kbps
    Channel(s)                               : 2 channels
    Channel positions                        : Front: L R
    Sampling rate                            : 48.0 KHz
    Bit depth                                : 16 bits
    Compression mode                         : Lossy
    Delay relative to video                  : -852ms
    Stream size                              : 15.8 MiB (4%)
    
    Menu
    1 Link FSHARE~ 4.36GB
    Bạn nhấn nút Like, sau đó nhấn F5 để lấy link nhé!
    Nội dung Ẩn:
    **Link đã được ẩn: Bạn click nút Like để lấy link download nhé.**
    Xem hướng dẫn
    Tags:

    Thấy hay chia sẻ ngay

  2. Cutyhamchoi

    Cutyhamchoi Trùm Cuối

  3. trungpdse03840

    trungpdse03840 Thành viên mới

    phụ để torrent không kéo được rồi bác ạ lỗi hay sao ý
  4. Cutyhamchoi

    Cutyhamchoi Trùm Cuối

    smileup and Hiếu Titi like this.
  5. henryduc96

    henryduc96 Uploader